Что такое глубина цвета 1 бит как сделать


Видео: AVC/H.264, 1920x1080, 9191 Кбит/сек
Аудио 1: AC3 5.1 384 Кбит/сек - Русский
Аудио 2: AC3 5.1 640 Кбит/сек - Английский

Общее
Уникальный идентификатор : 179275232463631438843964994079463207605 (0x86DF2762A3B516178BCCF73B2FCE72B5)
Полное имя : K:\temp\DESPICABLE_ME_3_3D\DESPICABLE_ME_3_3D.mkv
Формат : Matroska
Версия формата : Version 2
Размер файла : 6,53 Гбайт
Продолжительность : 1 ч. 29 м.
Общий поток : 10,4 Мбит/сек
Название фильма : DESPICABLE_ME_3_3D_Crop_HO/U
Дата кодирования : UTC 2017-09-25 16:58:54
Программа кодирования : mkvmerge v5.8.0 ('No Sleep / Pillow') built on Sep 2 2012 15:37:04
Библиотека кодирования : libebml v1.2.3 + libmatroska v1.3.0

Видео
Идентификатор : 1
Формат : AVC
Формат/Информация : Advanced Video Codec
Профиль формата : High@L4.1
Параметр CABAC формата : Да
Параметр ReFrames формата : 4 кадра
Идентификатор кодека : V_MPEG4/ISO/AVC
Продолжительность : 1 ч. 29 м.
Битрейт : 9191 Кбит/сек
Ширина : 1920 пикселей
Высота : 1080 пикселей
Соотношение сторон : 16:9
Режим частоты кадров : Постоянный
Частота кадров : 23,976 (24000/1001) кадра/сек
Цветовое пространство : YUV
Субдискретизация насыщенности : 4:2:0
Битовая глубина : 8 бит
Тип развёртки : Прогрессивная
Бит/(ПикселиКадры) : 0.185
Размер потока : 5,76 Гбайт (88%)
Заголовок : rip by I/N
Библиотека кодирования : x264 core 128 r2216M 198a7ea
Настройки программы : cabac=1 / ref=4 / deblock=1:-3:-3 / analyse=0x3:0x133 / me=umh / subme=11 / psy=1 / psy_rd=1.00:0.15 / mixed_ref=1 / me_range=64 / chroma_me=1 / trellis=2 / 8x8dct=1 / cqm=0 / deadzone=21,11 / fast_pskip=1 / chroma_qp_offset=-3 / threads=8 / lookahead_threads=1 / sliced_threads=0 / nr=0 / decimate=1 / interlaced=0 / bluray_compat=0 / constrained_intra=0 / bframes=12 / b_pyramid=2 / b_adapt=2 / b_bias=0 / direct=3 / weightb=1 / open_gop=0 / weightp=2 / keyint=230 / keyint_min=23 / scenecut=40 / intra_refresh=0 / rc_lookahead=40 / rc=crf / mbtree=1 / crf=18.0 / qcomp=0.60 / qpmin=10 / qpmax=69 / qpstep=4 / vbv_maxrate=40000 / vbv_bufsize=30000 / crf_max=30.0 / nal_hrd=none / ip_ratio=1.40 / aq=2:0.90
Default : Да
Forced : Нет

Аудио #1
Идентификатор : 2
Формат : AC-3
Формат/Информация : Audio Coding 3
Параметр Endianness формата : Big
Идентификатор кодека : A_AC3
Продолжительность : 1 ч. 29 м.
Вид битрейта : Постоянный
Битрейт : 384 Кбит/сек
Каналы : 6 каналов
Расположение каналов : Front: L C R, Side: L R, LFE
Частота : 48,0 КГц
Частота кадров : 31,250 кадров/сек (1536 spf)
Битовая глубина : 16 бит
Метод сжатия : С потерями
Размер потока : 246 Мбайт (4%)
Заголовок : Дубляж (iTunes)
Язык : Russian
ServiceKind/String : Complete Main
Default : Да
Forced : Нет

Аудио #2
Идентификатор : 3
Формат : AC-3
Формат/Информация : Audio Coding 3
Параметр Endianness формата : Big
Идентификатор кодека : A_AC3
Продолжительность : 1 ч. 29 м.
Вид битрейта : Постоянный
Битрейт : 640 Кбит/сек
Каналы : 6 каналов
Расположение каналов : Front: L C R, Side: L R, LFE
Частота : 48,0 КГц
Частота кадров : 31,250 кадров/сек (1536 spf)
Битовая глубина : 16 бит
Метод сжатия : С потерями
Размер потока : 411 Мбайт (6%)
Заголовок : Original
Язык : English
ServiceKind/String : Complete Main
Default : Нет
Forced : Нет

Текст
Идентификатор : 4
Формат : UTF-8
Идентификатор кодека : S_TEXT/UTF8
Идентификатор кодека/Информация : UTF-8 Plain Text
Заголовок : Forced
Язык : Russian
Default : Да
Forced : Нет

Меню
00:00:00.000 : en:00:00:00.000
00:03:06.102 : en:00:03:06.102
00:07:57.976 : en:00:07:57.976
00:11:12.837 : en:00:11:12.837
00:16:15.765 : en:00:16:15.765
00:20:07.497 : en:00:20:07.497
00:24:07.988 : en:00:24:07.988
00:28:57.067 : en:00:28:57.067
00:32:55.347 : en:00:32:55.347
00:39:01.838 : en:00:39:01.838
00:42:44.186 : en:00:42:44.186
00:46:47.179 : en:00:46:47.179
00:50:55.635 : en:00:50:55.635
00:56:12.077 : en:00:56:12.077
01:00:02.264 : en:01:00:02.264
01:05:41.228 : en:01:05:41.228
01:10:14.542 : en:01:10:14.542
01:14:33.760 : en:01:14:33.760
01:19:29.722 : en:01:19:29.722
01:21:56.994 : en:01:21:56.994


Источник: http://stereotraker.ru/3dboevick/1746-bez-chernyh-polos-na-ves-ekrangadkiy-ya-3-3d-despicable-me-3-3d-vertikalnaya-anamorfnaya-stereopara.html



Рекомендуем посмотреть ещё:


Закрыть ... [X]

Лучшие смартфоны до 5 тысяч рублей 2017: ТОП-4, обзор Ванночка для купания ребёнка с подставкой


Что такое глубина цвета 1 бит как сделать Глоссарий компьютерных терминов на английском
Что такое глубина цвета 1 бит как сделать Сравнение типов матриц ЖК (LCD-, TFT-) мониторов
Что такое глубина цвета 1 бит как сделать Рапунцель: Дорога к мечте / Tangled: Before Ever After
Что такое глубина цвета 1 бит как сделать Ускорение AutoCAD. Часть 1 : AutoLISP / VisualLISP
Что такое глубина цвета 1 бит как сделать Двоичное кодирование информации
Что такое глубина цвета 1 бит как сделать BMP Википедия
8 правил продаж через Instagram Владимир Набоков. Приглашение на казнь Декоративная решетка для беседки своими руками Какая одежда нужна новорожденному на первое Лечение молочных зубов детям в Новосибирске: современные Пальто - Вязание крючком и Пожелания подруге в прозе выздоравливать и не болеть Почему женщина должна следовать за мужчиной? Прыщи на ступнях (стопе, ногах) - что это, на ладонях у


Похожие новости